#TITLE:sync;
#SUBTITLE:(IVKAS Style);
#ARTIST:OutPhase;
#TITLETRANSLIT:;
#SUBTITLETRANSLIT:;
#ARTISTTRANSLIT:;
#CREDIT:;
#BANNER:sync.png;
#BACKGROUND:sync-bg.png;
#LYRICSPATH:;
#CDTITLE:!a0Title.png;
#MUSIC:sync.mp3;
#OFFSET:-2.955;
#SAMPLESTART:37.400;
#SAMPLELENGTH:12.000;
#SELECTABLE:YES;
#BPMS:0.000=167.000;
#STOPS:;
#BGCHANGES:;
// cache tags:
#FIRSTBEAT:0.000;
#LASTBEAT:252.000;
#SONGFILENAME:Songs/nhac/sync/sync.sm;
#HASMUSIC:1;
#HASBANNER:1;
#MUSICLENGTH:99.248;
// end cache tags

//---------------dance-single - ----------------
#NOTES:
     dance-single:
     :
     Hard:
     10:
     1.000,0.984,0.524,0.020,1.000,688.000,52.000,2.000,0.000,0.000:
0001
0100
0010
1000
0100
0010
0100
1000
,
0100
0010
0001
1000
0100
0010
0100
1000
,
0001
0010
0100
1000
0010
0100
0001
0100
,
0010
1000
0100
1000
0001
0010
1001
0100
,
0011
1000
0101
1000
0011
1000
0110
0001
,
1010
0100
0011
0100
1001
0010
1100
0001
,
0110
0001
1010
0100
1001
0100
0011
1000
,
0110
1000
0101
0010
1001
0010
0101
0010
,
1001
0010
1001
0100
0011
0100
1010
0100
,
1001
0010
0101
0010
1001
0100
0011
0100
,
1010
0100
1001
0100
0011
1000
0110
0001
,
1100
0010
1001
0010
0101
0010
1100
0010
,
0101
0000
0010
0000
1001
0000
0100
0000
1010
0000
1000
0100
0010
0100
0010
0001
,
1100
0000
0010
0000
0101
0000
1000
0000
0110
0000
1000
0010
0100
0010
0001
1000
,
0101
0000
0010
0000
1100
0000
0001
0000
0110
0000
0001
1000
0100
1000
0001
0100
,
0010
0100
0001
1000
0100
0010
0001
0100
0010
1000
0100
0010
0001
1000
0010
0100
,
0001
0100
0001
0000
0010
0000
1000
0010
0000
0100
0010
0000
0001
0100
0001
0000
,
1000
0100
1000
0000
0010
0000
0001
0010
0000
0100
0010
0000
1000
0100
1000
0000
,
0100
0010
1000
0000
0100
0010
1000
0000
0001
0100
0010
0000
0001
0100
0010
0000
,
0100
0010
0001
0000
1000
0100
0010
0000
0100
0010
0001
1000
0100
0010
0001
0000
,
1000
0010
1000
0000
0100
0000
0010
0001
0000
1000
0100
0000
1000
0100
1000
0000
,
0001
0010
0001
0000
0100
0000
1000
0100
0000
0001
0100
0000
0001
0100
0001
0000
,
0010
0100
0001
0000
0010
0100
0001
0000
1000
0010
0100
0000
1000
0010
0100
0000
,
0010
0100
1000
0000
0001
0010
0100
0000
0010
0100
1000
0001
0010
0100
1000
0000
,
1000
0100
0001
0100
1000
0000
0010
0100
0000
1000
0010
0000
1000
0010
0100
0000
,
0001
0010
1000
0010
0100
0000
0001
0100
0000
1000
0010
0000
0001
0100
0010
0000
,
1000
0100
0010
0000
1000
0100
0010
0000
0100
0010
0001
0000
0100
0010
0001
0000
,
0010
0100
0001
0000
0010
0100
0001
0000
1000
0010
0100
0001
0010
0100
1000
0000
,
0001
0010
1000
0010
0100
0000
0001
0100
0000
1000
0010
0000
0001
0100
0010
0000
,
1000
0100
0001
0100
0010
0000
1000
0010
0000
0001
0100
0000
1000
0010
0100
0000
,
0001
0010
0100
0000
0001
0010
0100
0000
0010
0100
1000
0000
0010
0100
1000
0000
,
0100
0010
1000
0000
0100
0010
1000
0000
0001
0100
0010
1000
0100
0010
0001
0000
,
0100
0001
1000
0100
0010
0000
0100
1000
0000
0001
0100
0000
0010
1000
0100
0000
,
0001
1000
0100
0001
0100
0000
0010
1000
0000
0010
0100
0000
1000
0100
0001
0000
,
0001
0010
0100
0000
0001
0010
0100
0000
1000
0100
0010
0000
1000
0100
0010
0000
,
0001
0010
0100
0000
1000
0100
0010
0001
0010
0100
1000
0000
0100
0010
0001
0000
,
0010
1000
0001
0010
0100
0000
1000
0001
0000
1000
0010
0000
0100
0001
0010
0000
,
1000
0001
0010
1000
0010
0000
1000
0001
0000
0100
0010
0000
0001
0010
1000
0000
,
1000
0100
0010
0000
1000
0100
0010
0000
0001
0010
0100
0000
0001
0010
0100
0000
,
1000
0100
0010
0000
0001
0010
0100
1000
0100
0010
0001
0000
0010
0100
1000
0000
,
0001
0100
0010
0001
1000
0000
0100
0010
0000
0100
0001
0000
1000
0010
0001
0000
,
0100
0010
0001
0100
0001
0000
1000
0010
0000
1000
0001
0000
0010
0001
0100
0000
,
0100
1000
0001
0000
0100
1000
0001
0000
0010
0001
1000
0000
0010
0001
1000
0000
,
0100
1000
0001
0000
0010
0001
1000
0100
1000
0001
0010
0000
0001
1000
0100
0000
,
1000
0010
0100
1000
0001
0000
0010
0100
0000
0010
1000
0000
0001
0100
1000
0000
,
0010
0100
1000
0010
1000
0000
0010
0100
0000
0001
1000
0000
0100
1000
0010
0000
,
0010
0001
1000
0000
0010
0001
1000
0000
0100
1000
0001
0000
0100
1000
0001
0000
,
0010
0001
1000
0000
0100
1000
0001
0010
0001
1000
0100
0000
1000
0001
0010
0000
,
1000
0100
1000
0000
0100
0000
0010
0001
0000
0010
0001
0000
0010
0001
0010
0000
,
0100
0001
0100
0000
0001
0000
1000
0010
0000
1000
0010
0000
1000
0100
0010
0000
,
1000
0100
0001
0000
1000
0100
0001
0000
1000
0010
0001
0000
1000
0010
0001
0000
,
1000
0100
0010
0000
0001
0010
0100
1000
0100
0010
0001
0000
0010
0100
1000
0000
,
0001
1000
0010
0000
1000
0000
0001
1000
0000
0010
0100
0000
0001
0100
0010
0000
,
0001
0100
1000
0000
0100
0000
0010
0001
0000
1000
0001
0000
0010
0100
0001
0000
,
0010
1000
0100
0000
0010
1000
0100
0000
0010
0001
0100
0000
0010
0001
0100
0000
,
0100
1000
0001
0000
0100
0001
1000
0010
1000
0001
0100
0000
0001
1000
0010
0000
,
1001
0000
0100
0000
0001
0000
0010
0000
1001
0000
0010
0100
0001
0010
1000
0100
,
1001
0000
0100
0000
1000
0000
0100
0000
1001
0000
0010
0100
0001
0010
1000
0100
,
1001
0000
0010
0000
1000
0000
0010
0000
1000
0000
0100
0010
1000
0100
0001
0010
,
1000
0000
0010
0000
0001
0000
0010
0000
1000
0000
0100
0010
1000
0100
0001
0010
,
1001
0100
0010
0100
1001
0010
0001
0100
,
1001
0010
1000
0100
1001
0100
0001
0010
,
2002
0000
0000
0000
,
3003
0000
0000
0000
;

//---------------dance-single - ----------------
#NOTES:
     dance-single:
     :
     Challenge:
     1:
     1.000,1.000,1.000,1.000,1.000,1271.000,475.000,361.000,0.000,217.000:
1001
0000
0000
0000
0000
0000
0000
0000
0000
0000
0000
0000
0000
0000
0000
1000
0001
1000
0000
0000
0000
0000
0000
0000
0000
0000
0000
0000
0000
0000
0000
0000
0110
0000
0000
0000
0000
0000
0000
0000
0000
0000
0000
0000
0000
0000
0000
1000
0001
1000
0000
0000
0000
0000
0000
0000
0000
0000
0000
0000
0000
0000
0000
0000
,
1010
0000
0000
0000
0000
0000
0000
0000
0000
0000
0000
0000
0000
0000
0000
1000
0001
1000
0000
0000
0000
0000
0000
0000
0000
0000
0000
0000
0000
0000
0000
0000
0101
0000
0000
0000
0000
0000
0000
0000
0000
0000
0000
0000
0000
0000
0000
1000
0001
1000
0000
0000
0000
0000
0000
0000
0000
0000
0000
0000
0000
0000
0000
0000
,
1001
1000
0100
0010
1001
0010
0100
0001
1010
0001
0100
0010
0101
0001
0010
0100
,
1100
0000
0010
0000
0100
0000
0010
0000
0011
0000
0010
0000
0100
0000
0001
0000
1001
0000
0100
0000
0001
0000
1000
0000
0110
0010
0100
0001
1001
0010
0100
1000
,
0110
0000
0000
0000
0000
0000
0000
0000
0000
0000
0000
0000
0000
1000
0001
1000
0001
1000
0001
0000
0000
0000
0000
0000
0000
0000
0000
0000
0000
0000
0000
0000
1001
0000
0000
0000
0000
0000
0000
0000
0000
0000
0000
1000
0001
1000
0001
1000
0001
1000
0001
0000
0000
0000
0000
0000
0000
0000
0000
0000
0000
0000
0000
0000
,
0110
0000
0000
0000
0000
0000
0000
0000
0000
0000
0000
0000
0000
0000
0000
1010
0101
1010
0000
0000
0000
0000
0000
0000
0000
0000
0000
0000
0000
0000
0000
0000
1001
0000
0000
0000
0000
0000
0000
0000
0000
0000
0000
0000
0000
0000
0000
0000
1010
0000
0000
0000
0000
0000
0000
0000
0000
0000
0000
0000
0000
0000
0000
0000
,
0101
0011
1100
1100
,
0011
0000
0000
0000
0000
0000
0000
0000
0000
0000
0000
0000
0000
0000
0000
0000
0011
0000
0000
0000
0000
0000
0000
0000
0000
0000
0000
0000
0000
0000
0000
0000
1001
0000
0000
0000
0000
0000
0000
0000
0000
0000
0000
0000
1001
0010
0100
0001
1001
0010
0100
0001
1000
0100
0010
0001
1001
0000
0000
0000
0000
0000
0000
0000
,
1001
1010
0101
0011
,
1100
0110
1001
0110
,
1001
1100
0011
1010
,
0101
1001
0011
1100
,
1010
0000
0000
0000
0000
0000
1001
0000
0000
0000
0000
0000
0101
0000
1000
0100
0010
0001
1000
0100
0010
0001
1000
0200
0310
0002
2003
3200
0320
0032
1003
0100
0010
0001
1000
0100
0010
0001
2000
3100
0010
0001
1000
0100
0010
0001
0010
0100
,
1000
0000
0000
0000
0000
0000
0001
0000
0000
0000
0000
0000
1000
0000
0000
0000
0000
0000
0001
0000
0000
0000
0000
0000
1000
0000
0000
0000
0000
0000
0002
0000
0000
0000
0000
0000
1003
0000
0000
0000
0000
0000
0001
0000
0000
0000
0000
0000
1000
0000
0000
0000
0000
0000
0001
0000
0000
0000
0000
0000
2000
0000
0000
0000
0000
0000
3001
0000
0000
0000
0000
0000
1000
0000
0000
0000
0000
0000
0002
0000
0000
0000
0000
0000
2003
0000
0000
0000
0000
0000
3001
0000
0000
0000
0000
0000
1000
0000
0000
0000
0000
0000
0002
0000
0000
0000
0000
0000
2003
0000
0000
0000
0000
0000
3002
0000
0000
0000
0000
0000
1003
0000
0000
0000
0000
0000
0002
0000
0000
0000
0000
0000
1003
0000
0000
0000
0000
0000
0001
0000
0000
0000
0000
0000
1000
0000
0000
0000
0000
0000
0000
0000
0001
0000
0000
0000
0000
0000
0000
0000
1000
0000
0000
0000
0000
0000
0000
0000
0001
0000
0000
0000
0000
0000
0000
0000
1000
0000
0000
0000
0000
0000
0000
0000
0001
0000
0000
0000
0000
0000
0000
0000
,
1000
0000
0001
0000
1000
0000
0001
0000
0000
1000
0000
0000
0001
0000
0000
1000
0000
0000
0001
0000
0000
1000
0000
0000
0001
0000
0000
0000
1000
0000
0000
0000
0001
0000
0000
0000
1000
0000
0000
0000
0000
0000
0001
0000
0000
0000
0000
0000
,
2000
3001
1000
0000
0001
0000
1000
0000
,
1001
1000
0100
1000
0100
1000
0000
0010
0001
1000
0002
2003
3100
0010
0001
1000
0100
0010
2000
3100
0001
1000
0001
1000
0100
0010
0001
0100
2000
3001
1000
0100
,
0010
0002
2003
3100
0010
0001
0010
0100
0010
0100
0020
0230
0302
1003
0200
0310
0001
1000
0001
1000
0100
0010
0001
1000
0100
0010
0001
0100
1000
0100
0010
0001
,
1000
0100
0010
0001
0010
0100
1000
0010
0001
1000
0100
0010
0002
0023
0230
1300
0100
0010
0001
1000
0001
1000
0100
0010
0001
0010
0100
1000
0001
0010
0100
1000
,
0001
1000
0100
0010
0001
1000
0100
0010
0001
0010
0100
1000
0001
0010
0100
1000
0100
0010
0001
1000
0100
0010
0001
0010
,
0100
0000
1000
0000
0001
0000
0010
0000
0100
0000
1000
0000
0001
0000
0000
0100
0000
0000
0010
0000
0000
1000
0000
0000
0002
0000
0000
0103
0000
0000
0010
0000
0000
1000
0000
0000
0100
0000
0000
0010
0000
0000
0001
0000
0000
1000
0000
0000
,
0100
0010
0002
0013
0100
2000
3002
0023
0230
1300
0100
0010
0001
1000
0001
1000
,
0001
1000
0002
1003
0002
1003
0001
1000
0001
1000
0002
1003
0001
1000
0001
1000
,
0001
1000
0100
0010
0001
0010
0100
1000
0001
1000
0002
1003
0002
2003
3002
2003
3002
2003
3001
1000
0001
1000
0001
1000
0001
1000
0001
1000
0001
2000
3001
1000
,
0001
0100
0010
0100
0010
0100
0010
0200
0310
0200
0310
0100
0020
0230
0310
0200
0320
0030
0100
0000
0000
0000
0000
0000
0000
0000
0000
0000
0000
0000
0000
0000
,
1000
0100
0010
0001
1000
0100
0010
0001
1000
0100
0010
0001
1000
0100
0010
0001
1000
0100
0010
0001
0000
0000
0000
0001
0010
0100
1000
0001
0010
0100
1000
0002
0013
0200
1300
0002
0023
0230
2300
3001
0010
0200
1300
0001
0010
0100
1000
0001
0010
0100
1000
0001
0010
0100
1000
0000
0000
0000
1000
0100
0010
0001
1000
0100
,
0010
0001
1000
0100
0010
0001
1000
0100
0010
0001
1000
0100
0010
0001
1000
0100
0010
0001
1000
0100
0010
0001
0000
0000
0000
0001
0010
0100
1000
0001
0010
0100
1000
0001
0010
0100
1000
0001
0010
0100
1000
0001
0010
0200
1300
0001
0010
0100
1000
0001
0010
0100
1000
0001
0020
0130
1000
0000
0000
0000
1000
0100
0010
0001
,
1000
0100
0010
0001
1000
0100
0010
0001
1000
0100
0010
0001
1000
0100
0010
0001
1000
0100
0010
0001
1000
0100
0010
0001
1000
0100
0010
0001
0000
0000
0000
0001
0010
0100
1000
0001
0010
0100
1000
0001
0010
0100
1000
0001
0010
0100
1000
0001
0010
0100
1000
0001
0010
0100
1000
0001
0010
0100
1000
0001
0010
0100
1000
0001
,
0010
0100
1000
0001
0010
0100
1000
0000
0000
0000
0000
0000
0000
0000
0000
0000
1100
0000
0011
0000
1100
0000
0011
0000
1100
0000
0011
0000
1100
0000
0011
0000
1100
0000
0011
0000
1100
0000
0011
0000
1010
0000
0101
0000
1010
0000
0101
0000
1010
0000
0101
0000
1010
0000
0101
0000
1010
0000
0101
0000
1010
0000
0101
0000
,
1001
0000
0000
0000
0000
0000
0110
0000
0000
0000
0000
0000
1001
0000
0000
0000
0000
0000
0110
0000
0000
0000
0000
0000
1001
0000
0000
0000
0000
0000
0110
0000
0000
0000
0000
0000
1001
0000
0000
0000
0000
0000
0220
0000
0000
0000
0000
0000
1331
0000
0000
0000
0000
0000
0110
0000
0000
0000
0000
0000
1001
0000
0000
0000
0000
0000
0110
0000
0000
0000
0000
0000
1001
0000
0000
0000
1100
0000
0000
0000
0011
0000
0000
0000
1100
0000
0000
0000
0011
0000
0000
0000
1100
0000
0000
0000
0011
0000
0000
0000
1100
0000
0000
0000
0011
0000
0000
0000
1100
0000
0000
0000
0011
0000
0000
0000
2200
0000
0000
0000
3311
0000
0000
0000
1100
0000
0000
0000
0011
0000
0000
0000
1100
0000
0000
0000
0011
0000
0000
0000
1100
0000
0000
0000
0011
0000
0000
0000
1100
0000
0000
0000
0011
0000
0000
0000
1100
0000
0000
0000
0011
0000
0000
0000
1100
0000
0000
0000
0011
0000
0000
0000
1100
0000
0000
0000
0011
0000
0000
0000
1100
0000
0000
0000
0011
0000
0000
0000
1100
0000
0000
0000
,
0011
0000
0000
0000
2200
0000
0000
0000
3311
0000
0000
0000
1010
0000
0000
0101
0000
0000
1010
0000
0000
0101
0000
0000
1010
0000
0000
0101
0000
0000
1010
0000
0000
0101
0000
0000
1010
0000
0000
0101
0000
0000
1010
0000
0000
0101
0000
0000
1010
0000
0000
0101
0000
0000
1010
0000
0000
0101
0000
0000
0100
0000
0000
1111
0000
0000
1100
0000
0000
0011
0000
0000
1100
0000
0000
0011
0000
0000
1200
0000
0000
0311
0000
0000
1100
0000
0000
0011
0000
0000
1100
0000
0000
0011
0000
0000
1100
0000
0000
0011
0000
0000
1100
0000
0000
0022
0000
0000
1133
0000
0000
0011
0000
0000
1100
0000
0000
0011
0000
0000
1100
0000
0000
0022
0000
0000
1133
0000
0000
0011
0000
0000
1100
0000
0000
0011
0000
0000
1100
0000
0000
0011
0000
0000
1100
0000
0000
0011
0000
0000
1100
0000
0000
0011
0000
0000
1100
0000
0000
0011
0000
0000
1100
0000
0000
0011
0000
0000
1100
0000
0000
0011
0000
0000
1100
0000
0000
0011
0000
0000
1100
0000
0000
0011
0000
0000
1100
0000
0000
0022
0000
0000
,
1133
0000
0000
0000
2222
0000
0000
0000
0000
0000
0000
3003
0330
0220
0000
0000
,
0000
0000
2332
0000
,
0000
0000
0000
3003
0000
2020
0000
0000
0000
0000
0000
0000
0000
3000
0030
0200
,
0002
0000
0000
0000
0300
0200
0000
0000
0000
0000
0303
0000
0022
0000
0000
0000
,
0000
0000
0000
0000
0000
0000
0203
2030
0000
3000
0020
0302
0003
0000
0032
0003
,
0200
2000
0300
0020
3000
0002
0033
0000
2000
0200
0000
3020
0300
0002
0030
2000
,
0003
0200
3000
0020
0300
0002
0030
0000
2003
0000
3200
0000
0320
0002
0030
0000
,
0000
0023
0030
0020
0200
0030
2300
0000
3002
0000
0023
0000
0230
0000
2300
0200
,
3000
0302
0020
0003
2030
0200
3020
0302
0030
0023
0000
2030
0200
3020
0302
0030
,
0203
0000
0020
0300
2030
0200
3020
0302
0030
2003
0200
3020
0332
0203
0020
0302
,
0030
0203
0020
0302
2033
0200
3020
0302
2030
0203
3020
0302
0030
2203
3020
0300
,
0032
2203
0020
3000
0332
2000
3223
0000
0332
2203
0020
3302
2030
0003
0200
3320
,
0030
0002
2020
0000
3000
0000
0000
0000
0030
0000
0020
0000
0000
0000
2233
0000
,
0000
0000
0000
0000
0000
0000
0000
0000
0000
0022
0000
0000
3300
0000
0000
0000
,
2200
0000
0000
0003
0030
0000
0000
0002
0000
0000
3300
0000
0200
2000
0000
0300
,
0000
0200
0000
0303
3020
0032
0203
0020
0332
2003
3000
0000
0000
0000
0000
0000
,
1111
1001
1001
1001
1111
1001
1001
1001
1111
1001
1001
1001
1111
1001
1001
1001
1111
1001
1001
1001
1111
1001
1001
1001
1111
0001
1001
1001
1111
1001
1001
1001
1111
1001
1001
1001
1111
1001
1001
1001
1110
1000
1001
1001
1111
1001
1001
1001
1111
1001
1001
1001
1111
0000
0000
1001
1111
1001
1001
1001
1111
1001
0001
1001
,
1111
1001
1001
1001
1111
1000
1000
1001
1111
1001
1001
1001
1111
0001
1001
0001
1111
1001
1001
1001
1111
1001
0001
0000
0110
1001
1001
1000
0110
0000
1001
1001
1111
1000
1000
1001
1111
1001
0000
1001
1111
1001
1001
1001
1111
1001
0001
1001
1111
1001
1001
1001
1111
1001
1001
1001
1111
0001
1001
1001
1111
1001
1001
0000
,
1111
0000
0000
2222
0000
0000
3333
2222
0000
0000
3333
2222
0000
0000
3333
2222
0000
0000
3333
2222
0000
0000
3333
2222
,
0000
0000
0000
0000
0000
0000
0000
0000
0000
0000
0000
0000
0000
0000
0000
0000
3333
0000
0000
0000
0000
0000
0000
0000
2222
0000
0000
0000
0000
0000
0000
0000
0000
0000
0000
0000
0000
0000
0000
0000
3333
0000
0000
0000
0000
0000
0000
0000
2222
0000
0000
0000
0000
0000
0000
0000
0000
0000
0000
0000
0000
0000
0000
0000
0000
0000
0000
0000
0000
0000
0000
0000
0000
0000
0000
0000
0000
0000
0000
0000
0000
0000
0000
0000
0000
0000
0000
0000
3333
0000
0000
0000
0000
0000
0000
0000
2222
0000
0000
0000
0000
0000
0000
0000
0000
0000
0000
0000
0000
0000
0000
0000
0000
0000
0000
0000
0000
0000
0000
0000
0000
0000
0000
0000
0000
0000
0000
0000
0000
0000
0000
0000
0000
0000
0000
0000
0000
0000
0000
0000
0000
0000
0000
0000
3003
0000
0000
0000
0000
0000
2002
0000
0300
0000
0000
0000
0000
0000
0000
0000
0200
0000
0000
0000
0000
0000
0000
0000
0000
0000
0000
0000
0000
0000
0000
0000
0000
0000
0000
0000
0000
0000
0000
0000
0000
0000
0000
0000
0000
0000
0000
0000
,
0000
0000
0000
0000
0000
0000
0000
0000
0000
0000
0000
0000
0000
0000
0000
0000
0000
0000
0000
0000
0000
0000
0000
0000
0000
0000
0000
0000
0000
0000
0000
0000
0000
0000
0000
0000
0000
0000
0000
0000
0000
0000
0000
0000
0000
0000
0000
0000
0000
0000
0000
0000
0000
0000
0000
0000
0000
0000
0000
0000
3033
0000
0000
0000
0300
0000
1111
0000
0000
0000
0000
0000
0110
0000
0000
0000
0000
0000
1111
0000
0000
0110
0000
0000
1111
0000
0000
0110
0000
0000
1111
0000
0000
0110
0000
0000
1111
0000
0000
0110
0000
0000
1111
0000
0000
0110
0000
0000
1111
0000
0000
0000
0000
0000
1001
0000
0000
0110
0000
0000
1111
0000
0000
0110
0000
0000
1111
0000
0000
0010
0000
0000
1111
0000
0000
0110
0000
0000
1111
0000
0000
0110
0000
0000
1111
0000
0000
0110
0000
0000
1111
0000
0000
0110
0000
0000
1111
0000
0000
0110
0000
0000
1111
0000
0000
0110
0000
0000
1111
0000
0000
0110
0000
0000
1111
0000
0000
0110
0000
0000
1111
0000
0000
0110
0000
0000
1111
0000
0000
0110
0000
0000
,
1111
0110
1111
0110
1111
0110
1111
0110
1111
0110
1111
0110
1111
0110
1111
0110
1111
0110
1111
0110
1111
0110
1111
0010
1111
0110
1111
0110
1111
0110
1111
0000
1001
0000
1111
0110
1111
0110
1111
0110
1011
0110
1101
0000
1001
0000
1001
0000
1111
0000
1001
0110
1111
0000
1001
0010
1011
0110
1111
0110
1111
0010
1111
0000
,
0000
1001
1001
1001
1001
1001
1001
1001
1001
1001
1000
1000
1001
1001
1001
1001
,
1001
1001
1001
1001
0001
0000
0000
0000
1001
1001
1001
1001
1001
1001
1000
0001
,
2222
0000
0000
3333
0000
0000
2000
0000
0000
3222
0000
0000
0333
0000
0000
2121
0000
0000
3030
0000
0000
0000
0000
0000
2000
0000
0000
3002
0000
0000
0223
0000
0000
0330
0000
0000
0110
0000
0000
0020
0000
0000
2031
0000
0000
3002
0000
0000
2223
0000
0000
3302
0000
0000
2233
0000
0000
3020
0000
0000
0332
0000
0000
2223
0000
0000
3332
0000
0000
2003
0000
0000
3120
0000
0000
0032
2200
0000
0003
0000
3300
0000
0000
0000
2200
0000
0000
0000
0002
0000
3300
0000
0000
0000
0000
0000
2203
0000
0000
0000
0000
0000
0000
0000
0000
0000
0000
0000
3000
0000
0000
0000
0302
0000
0000
0000
0000
0000
0000
0000
2220
0000
0000
0000
0000
0000
0000
0000
0003
0000
0000
0000
3300
0000
0000
0000
0000
0000
0000
0000
0000
0000
0000
0000
2032
0000
0000
0000
0000
0000
0000
0000
0200
0000
0000
0000
0023
0000
0000
0000
3300
0000
2002
0000
0000
0000
0000
0000
0233
0000
0000
0020
0002
0000
3330
0000
2003
0000
0000
0000
3022
0000
0000
0000
0000
0000
0033
0000
0000
0000
0000
0000
,
2222
0033
0000
3322
0000
0000
2030
0000
0000
0203
0000
0000
,
3022
0000
0000
0000
0000
0000
0000
0000
0000
0000
0000
0000
0000
0000
0000
0000
0000
0000
0000
0000
0000
0000
0000
0000
0330
0000
0000
0000
0000
0000
0000
0000
0000
0000
0000
0000
0000
0000
0000
0000
0000
0000
0000
0000
0000
0000
0000
0000
2003
0000
0000
0000
0000
0000
0000
0000
0000
0000
0000
0000
0000
0000
0000
0000
0000
0000
0000
0000
0000
0000
0000
0000
0000
0000
0000
0000
0000
0000
0000
0000
0000
0000
0000
0000
0000
0000
0000
0000
0000
0000
0000
0000
0000
0000
0000
0000
3220
0000
0000
0000
0000
0000
0000
0000
0000
0000
0000
0000
0000
0000
0000
0000
0000
0000
0000
0000
0000
0000
0000
0000
0302
0000
0000
0000
0000
0000
0000
0000
2030
0000
0000
0000
0223
0000
0000
0000
0002
0000
3300
0000
0030
0000
0000
0000
0000
0000
0000
0000
0000
0000
0003
0000
0000
2000
0000
0000
0200
0000
0000
3000
0000
0000
0000
0000
0000
0320
0000
0000
0000
0000
0000
0002
0000
0000
0030
0000
0000
0000
0000
0000
2003
0000
0000
0200
0000
0000
0000
0000
0000
3020
0000
0000
,
0300
0000
0000
0002
0000
0000
2030
0000
0000
0000
0000
0000
0003
0000
0000
0000
3000
0000
0002
0000
0000
0000
0000
0000
2220
0000
0000
0000
0000
0000
0000
0000
0000
0000
0000
0000
3003
0000
0000
0000
0000
0000
0000
0000
0000
0000
0000
0000
2302
0000
0000
0000
0000
0000
0000
0000
0000
0000
0000
0000
0000
0000
0000
0000
0000
0000
0000
0000
0000
0000
0000
0000
0030
0000
0000
0000
0000
0000
0000
0000
0000
0000
0000
0000
0000
0000
0000
0000
0000
0000
0000
0000
0000
0000
0000
0000
0223
0000
0000
0000
0000
0000
0000
0000
0000
0000
0000
0000
0000
0000
0000
0000
0000
0000
0000
0000
0000
0000
0000
0000
0000
0000
0000
0000
0000
0000
0000
0000
0000
0000
0000
0000
0000
0000
0000
0000
0000
0000
0000
0000
0000
0000
0000
0000
3302
0000
0000
0000
0000
0000
0000
0000
0000
0000
0000
0000
0000
0000
0000
0000
0000
0000
0000
0000
0000
0000
0000
0000
0000
0000
0000
0000
0000
0000
0000
0000
0000
0000
0000
0000
0000
0000
0000
0000
0000
0000
0000
0000
0000
0000
0000
0000
,
2233
0000
3020
0000
0332
2000
0223
3302
,
2233
0000
0000
0000
0000
0000
0000
0000
0020
0000
0000
0000
3000
0000
0000
0000
0302
0000
0000
0000
0000
0000
0000
0000
2033
0000
0000
0000
0120
0000
3002
0000
0000
2030
0000
0000
3223
0000
0000
0302
0000
0000
2033
0000
0000
0200
0000
0000
3320
0000
0000
0032
0000
0000
2203
0000
0000
3020
0000
0000
0300
0000
0000
2032
0000
0000
0203
0000
0000
3020
0000
0000
0332
0000
0000
2003
0000
0000
0200
0000
0000
3022
0000
0000
0330
0000
0000
2003
0000
0000
0200
0000
0000
3020
0000
0000
0300
0000
0000
0031
0000
0000
0010
0000
0000
0100
0000
0000
1000
0000
0000
0001
1111
0000
0000
0000
0000
0000
0000
0000
1111
0000
0000
1111
0000
0000
1111
0000
0000
1111
0000
0000
1111
0000
0000
1111
0000
0000
1111
0000
0000
1111
0000
0000
1111
0000
0000
1111
0000
0000
0000
0000
0000
0000
0000
0000
0011
0000
0000
0011
0000
0000
1111
0000
0000
0100
0000
0000
0100
0000
0000
0100
0000
0000
0100
0000
0000
0100
0000
0000
0000
0000
0000
0000
0000
0000
0000
0000
0000
0000
0000
0000
,
0100
0100
0100
0100
0100
0100
0100
0100
0100
0100
0100
0100
0100
0100
0100
0100
0100
0100
0100
0100
0100
0100
0100
0100
0100
0100
0100
0100
0100
0100
0100
0100
0100
0100
0100
0100
0100
0100
0100
0100
0100
0100
0100
0100
0100
0100
0100
0100
0100
0100
0100
0100
0100
0100
0100
0100
0100
0100
0100
0100
0100
0100
0100
0100
,
1111
0000
0000
0000
;
